#TITLE:AKB48;
#SUBTITLE:;
#ARTIST:Unknown artist;
#TITLETRANSLIT:;
#SUBTITLETRANSLIT:;
#ARTISTTRANSLIT:;
#CREDIT:;
#BANNER:;
#BACKGROUND:;
#LYRICSPATH:;
#CDTITLE:;
#MUSIC:AKB48.mp3;
#OFFSET:-0.266;
#SAMPLESTART:34.733;
#SAMPLELENGTH:12.000;
#SELECTABLE:YES;
#BPMS:0.000=174.079,284.000=232.105,294.000=348.158,295.000=87.039,303.000=174.079;
#STOPS:;
#BGCHANGES:;
// cache tags:
#FIRSTBEAT:0.500;
#LASTBEAT:447.000;
#SONGFILENAME:Songs/9you/AKB48/AKB48.sm;
#HASMUSIC:1;
#HASBANNER:0;
#MUSICLENGTH:162.515;
// end cache tags

//---------------dance-single - ----------------
#NOTES:
     dance-single:
     :
     Hard:
     1:
     0.951,1.000,1.000,0.769,0.135,583.000,360.000,125.000,0.000,80.000:
0000
0011
0000
0000
1000
0000
0000
0110
,
0010
0000
1001
0100
0010
0010
0010
1100
,
0200
0000
0000
0310
0010
1101
0100
0010
,
0110
0001
1000
0110
0010
0000
0101
1000
,
0110
0010
0100
1000
0100
0000
0101
1010
,
0101
0110
1001
0110
1001
0110
0000
0101
,
0202
0000
0000
0303
1000
1010
0101
0101
,
0000
1010
0000
0110
0000
0101
1010
0000
,
0110
0000
0101
0000
1010
0000
0101
0110
,
1001
0110
0101
1010
0110
0100
2002
0000
,
0000
3003
0110
0110
0000
0102
2000
0000
,
0000
3003
0110
0000
0110
0000
2002
0000
,
0000
3003
0110
0110
0000
2002
0000
0000
,
0000
0000
3113
0202
,
0000
0303
1010
1010
0000
0102
0000
0003
,
1010
0110
0101
1010
,
0101
0000
1010
0110
0000
0202
0000
0000
,
0000
0000
0000
0000
0303
1010
2020
0000
,
0000
0000
0000
3030
0110
0000
0202
0000
,
0000
0303
1010
0000
0110
0000
0101
0000
,
1010
0000
0110
0101
1001
0210
0020
0000
,
0300
0030
0101
0000
1010
0000
0101
0000
,
1010
0000
0101
0000
0110
0000
1001
0110
,
0101
0101
0000
1010
0110
0101
0001
1010
,
0110
0101
0101
1010
0000
0101
0000
0110
,
1001
0220
0000
0330
0101
0100
1010
0110
,
0000
0101
0202
0000
0303
1010
0110
0001
,
0110
1001
0110
0000
1001
0202
0000
0000
,
0000
0000
0303
0110
1010
1010
0000
0101
,
0000
0000
0110
0000
1001
0110
0010
0101
,
0110
0000
2002
0000
3113
0101
0100
0011
,
1001
0110
0101
0000
1010
0220
0000
0000
,
0000
0000
0000
0330
1001
1001
0110
0000
,
0000
0101
1010
0000
0110
0000
0202
0000
,
0000
0303
1010
0000
0000
0202
0000
0000
,
0000
0303
1010
0000
0110
1000
0220
0000
,
0000
0000
0330
0101
0101
0000
0202
0000
,
0000
0303
1010
0000
0110
0000
0202
0000
,
0000
0000
0303
0000
1010
2020
0000
0000
,
3030
0110
0101
1010
,
0101
0000
1010
0000
0101
0110
1001
0000
,
0110
0000
0110
0000
0101
0000
1010
0001
,
0100
0110
1001
0110
1111
0000
0020
0100
,
1100
1101
0000
0100
0101
0001
1000
0000
,
0101
0101
0000
1000
0001
0100
0101
0000
,
1001
0000
0101
0000
1001
0000
0101
0101
,
2000
0102
0000
3030
0003
0200
0011
0010
,
1000
0010
1010
1010
0011
1000
0001
0000
,
1011
1000
0010
0001
1010
0000
1011
0000
,
0010
0000
1001
0000
1010
0000
1001
0010
,
1010
2020
0000
0000
0000
3332
0100
1010
,
0110
0010
0100
1010
0100
0010
0110
0000
,
1010
0110
0000
1010
0000
0010
0110
0000
,
0110
0000
0100
1010
0100
0010
0110
0000
,
1000
0020
0100
0000
0000
0033
0020
0000
,
0200
0000
0030
2000
0310
0000
0000
3200
,
0002
0000
0320
0000
0103
0030
2000
0000
,
0020
3000
0200
0030
0010
0300
0002
0000
,
1000
0113
0010
0100
0010
1001
0100
0000
,
0010
0000
1001
0000
0110
0000
0101
1000
,
0110
0010
0100
0101
0101
0000
1010
0000
,
0101
0000
0110
0000
1001
0110
0101
1010
,
0101
0220
0000
0000
0000
0330
1001
0000
,
0110
1001
0110
1001
,
0110
0101
0000
0110
0210
0000
0300
1001
,
0110
0000
1001
0110
0001
1000
0110
1001
,
0110
0202
0000
0000
0000
0003
0310
1000
,
0000
0101
0202
0000
0000
0303
0120
0000
,
0030
1001
0220
0000
0000
0000
0000
0000
,
0330
0101
1010
0000
0101
0000
1010
0000
,
0101
0000
1010
0000
0101
0000
0110
0110
,
0000
0000
1001
0000
1001
0000
0000
0000
0110
0000
0110
0000
,
0000
0000
1001
0000
1001
0000
0000
0000
0110
0000
0110
0000
,
0110
0000
0000
0000
0000
0000
0000
0000
0000
0000
0000
0000
0000
0000
0000
0000
0000
0000
0000
0000
0000
0000
0000
0000
0000
0000
0000
0000
0000
0000
0000
0000
0000
0000
0000
0000
0000
0000
0000
0000
0000
0000
0000
0000
0000
0000
0000
0000
0000
0000
0000
0000
0000
0000
0000
0000
0000
0000
0000
0000
0000
0000
0000
0000
0002
0000
0000
0000
0000
0000
0000
0000
0000
0000
0000
0000
0000
0000
0000
0000
0000
0000
0000
0000
0000
0000
0000
0000
0000
0000
0000
0000
0000
0000
0000
0000
0000
0000
0000
0000
0000
0000
0000
0000
0000
0000
0000
0000
0000
0000
0000
0000
0000
0000
0000
0000
0000
0000
0000
0000
0000
0000
0000
0000
0000
0000
0000
0000
0000
0000
0000
0000
0000
0000
0000
0000
0000
0000
0000
0000
0000
0000
0000
0000
1010
0000
0000
0000
0000
0000
0100
0000
0000
0000
0000
0000
0000
0000
0000
0000
0000
0000
0010
0000
0000
0000
0000
0000
0010
0000
0000
0000
0000
0000
1100
0000
0000
0000
0000
0000
0100
0000
0000
0000
0000
0000
0010
0000
0000
0000
0000
0000
,
0000
0020
0000
0000
0233
0010
0011
0000
1000
0000
0010
0001
0010
1000
0010
0010
0010
0320
0000
0100
0030
0000
0002
0010
1100
0110
0000
0010
1000
0003
0020
1100
,
0100
0000
0000
0000
0000
0000
0001
0000
0000
0000
0000
0000
0001
0000
0000
0000
0000
0000
0000
0000
0000
0000
0000
0000
0100
0000
0000
0000
0000
0000
0030
0000
0000
0000
0000
0000
0200
0000
0000
0000
0000
0000
0011
0000
0000
0000
0000
0000
0010
0000
0000
0000
0000
0000
1000
0000
0000
0000
0000
0000
0010
0000
0000
0000
0000
0000
0001
0000
0000
0000
0000
0000
0010
0000
0000
0000
0000
0000
1000
0000
0000
0000
0000
0000
0010
0000
0000
0000
0000
0000
0010
0000
0000
0000
0000
0000
0011
0000
0000
0000
0000
0000
0020
0000
0000
0000
0000
0000
0000
0000
0000
0000
0000
0000
0000
0000
0000
0000
0000
0000
0300
0000
0000
0000
0000
0000
0030
0000
0000
0000
0000
0000
0002
0000
0000
0000
0000
0000
0010
0000
0000
0000
0000
0000
0103
0002
0000
0000
0000
0000
0000
0000
0000
0000
0000
0000
0000
0000
0000
0000
0000
0000
0000
0000
0000
0000
0000
0000
1100
0000
0000
0000
0000
0000
0000
0000
0000
0000
0000
0000
0000
0000
0000
0000
0000
0000
0000
0000
0000
0000
0000
0000
,
0000
0010
1010
0100
0010
0000
0010
0020
,
0000
0030
0213
0001
1010
0000
0010
0000
,
0001
0010
0001
1000
0010
0010
0001
1000
,
0002
0000
0000
0303
0020
0000
0100
1100
,
0100
0001
0001
0100
1001
0100
1101
0002
,
0000
0003
0030
0002
0110
1000
0100
0020
,
1030
0110
0010
0000
1100
0100
0010
0020
,
0000
0000
0000
0233
0010
0011
1000
0010
,
0000
0011
0010
1000
0010
0010
0001
1010
,
1010
0000
0301
0002
0010
1100
0000
0110
,
0000
1110
0003
0010
0100
0011
0100
1000
,
2000
0000
0000
0000
3002
0000
0200
0003
,
0320
0000
0000
2030
0020
3000
0000
0230
,
0002
0300
2000
0000
3023
0000
0200
0030
,
0000
0320
0000
0031
0000
2000
3000
0010
,
0101
0100
0010
1000
0100
0010
0001
0000
,
0110
1000
0110
0001
0110
1001
0110
1101
,
0000
0110
0202
0000
0300
0003
1010
1010
,
0001
0110
0101
1010
0101
1110
1001
0000
,
0110
1001
0000
0110
0100
0001
0110
1101
,
0110
1001
0110
0101
0110
1001
0110
1001
,
0110
0000
0220
0000
0330
1001
0110
1001
,
0110
0001
1110
0000
1001
0110
1111
1001
,
0110
0000
2002
0000
3003
0000
0110
0010
,
0101
0110
0100
1010
0110
0001
0100
0110
,
1001
0220
0000
0000
0330
1001
0110
1001
,
0110
1001
0110
0101
0100
0102
0010
1000
,
0103
0010
0020
0000
0000
0230
0000
0000
,
0000
0000
0000
0000
0000
0302
0000
0000
,
0000
0000
0000
0000
0000
0000
2003
0020
,
0000
3030
0202
0000
0300
0113
0000
0000
,
2002
0000
3003
0110
0000
1001
0110
0000
,
0101
0101
0000
1010
0000
0110
0110
1001
,
0110
0110
0000
0000
0101
0000
1010
0000
,
0101
0000
0110
0110
1001
0110
0110
0110
,
0102
0200
0000
0000
0000
0000
0303
0000
;

//---------------dance-single - ----------------
#NOTES:
     dance-single:
     :
     Challenge:
     1:
     0.000,0.000,0.000,0.000,0.000,0.000,0.000,0.000,0.000,0.000:
0000
0000
0000
0000
;

//---------------dance-single - ----------------
#NOTES:
     dance-single:
     :
     Medium:
     1:
     0.000,0.000,0.000,0.000,0.000,0.000,0.000,0.000,0.000,0.000:
0000
0000
0000
0000
;

//---------------dance-single - ----------------
#NOTES:
     dance-single:
     :
     Easy:
     1:
     0.000,0.000,0.000,0.000,0.000,0.000,0.000,0.000,0.000,0.000:
0000
0000
0000
0000
;
